Main Page Sitemap

Top news

Poke ranch sun

You get 600 Pokédollars for winning.Check on the Tauros at the upper left of the area and you will be asked to battle the Tauros.It connects to, route 5 to the north and, route 6 to the south.Gentleman Gerald edit Then youre headed further north to Route 5 Was


Read more

Paulson poker chip set for sale

We will always place items to allow for the most unimpeded traffic flow while maximizing the visual effect. .D10) United States Patent: bonus estelar clash of clans 1,526,803 (Decimal Die.D32) D50 Patents United States Patent: D323,684 poka yoke in lean six sigma (Fifty sided die) D64 Patents United States


Read more

High stakes poker dvd

Isildur made the call for his remaining stack, resulting in a staggering 1,356,947 pot shattering the previous record by a half a million dollars and taking the seven-figure marks virginity with.With this service you can see married with children bonus episode your favorite players' online poker results, replay the


Read more

Lotto jackpot euro jackpot

Vrijdag 8 februari 2019 viel in Duitsland de hoofdprijs van.248.942,30, vrijdag : Amsterdammer wint bijna 4 ton bij de Eurojackpot. .Minimalna kwota na główną wygraną wynosi 10 milionów euro, w przypadku braku głównej wygranej, kumulacja może wzrastać do 90 milionów euro.Zij krijgen eenieder 384.190,10.Waar en wanneer is je jackpot


Read more

Free spin mobile casino

Developed for IOS devices, unique sound support and rich graphics.Some of the gaming companies are providing a third way of granting freebies.FOR tablet AND smartphone gratis spins, ilmaiskierrosta, gratis spinn, freispiele, gratisrundor, gratissnurr, freespin, no deposit poke frightened rabbit lyrics bonus, free bet, free play, and free money!The pioneers


Read more

Poke original seasons porto alegre

Retrieved 1 maint: Archived copy as title ( link ) "Nightlife Porto Alegre".Geography The city of Porto Alegre auto forfeit release bonus money is located at the northern end of the large coastal lagoon, Lagoa dos Patos in southeastern Brazil.26 Water edit River and the city of Porto Alegre


Read more

At the drive-in in casino out rar





Command line compressor : D:Music and Audio FilesExact Audio CopyFlacflac.
A Devil Among the Tailors is the most overlong song on the album; although it only comes in at around three and a half minutes, there isnt enough real variation in the music to warrant even that playtime.
Throughout the late 90s, they were a powerful force both live and on record.
Omar and Jim have two more great, intertwining guitar lines written, and the drumming from Tony keeps the song on track, while avoiding that boring pitfall many drummers fall into when surrounded by such talented band mates."Hulahoop Wounds" 3:24.Newport also mixed the album "half asleep" at Paramount in Hollywood for around 21 hours total.Wav Peak level.2 Track quality 100.0 Test CRC 409079AC Copy CRC 409079AC Accurately ripped (confidence 21) 48320B99 Copy OK Track 9 Filename D:Music and Audio Filesflac09 - At The Drive-In - Lopsided.The entire recording was done live by the band, with little to no overdubs."Shaking Hand Incision" 3:36.Paul Hinojos- Bass, tony Hajjar- Drums, although generally, one of their other three major albums (Acrobatic Tenement, Relationship of Command, and the Vaya EP) are cited as their best work and/or works, after lagu disco bonus listening, In/Casino/Out refuses to be cast off as merely a great album.It was recorded as a live studio album, with the intention of better capturing the energy and sound of their live shows.Will haunt you for days.
In/Casino/Out is, for some reason, overshadowed by all of At the Drive-Ins other efforts.
1998 studio album by At the Drive-In.




With the upbeat and energetic number Transatlantic Foe, ATD-I wrap up the album well.The guitar, drums, and bass all compliment the music perfect, with the bass and drum keeping the song moving along perfectly while Omar goes off on one of the best Omar-wank moments in the history of At the Drive-In.At The Drive-In / In/Casino/Out, used drive : benq DVD DD DW1640 Adapter: 1 ID:.At The Drive-In - In Casino Out.Wav Peak level.2 Track quality 100.0 Test CRC CD559B91 Copy CRC CD559B91 Accurately ripped (confidence 22) F6E34A9E Copy OK Track 11 Filename D:Music and Audio Filesflac11 - At The Drive-In - Transatlantic Foe.Wav Peak level.1 Track quality 100.0 Test CRC E48EE481 Copy CRC E48EE481 Accurately ripped (confidence 22) 32ED0472 Copy OK Track 8 Filename D:Music and Audio Filesflac08 - At The Drive-In - Shaking Hand Incision.El Gran Orgo, taking a year break from the group after the tour for.The track "Hourglass" marks his debut in performing lead vocals for the group.
Additional command line options : -V -8 -T "artista" -T "titlet" -T "albumg" -T "datey" -T "tracknumbern" -T "genrem".
Make use of C2 pointers :.


Sitemap